Модераторы: K15, Модераторы, Младшие модераторы

Клеопатра / Cleopatra (Фрэнк Роддэм)1[999, драма, биография, эротика, DVDRip-AVC / P, P2, A]

Сообщение Sovetnik » 08 окт 2020, 11:52

Клеопатра / Cleopatra


#777

Название: Клеопатра
Оригинальное название: Cleopatra
Год выхода: 1999
Страна: Германия, США
Студия: Babelsberg International Film Produktion, Hallmark Entertainment, RTL2
Продолжительность: 02:54:23
Перевод:
- Профессиональный (многоголосный, закадровый) Екатеринбург-Арт
- Профессиональный (двуголосый, закадровый) Zone Vision Studio
- Авторский (одноголосый, закадровый) Визгунов Сергей
Жанр: драма, биография, эротика

Режиссер: Фрэнк Роддэм

В ролях:
Билли Зейн, Тимоти Далтон, Руперт Грейвз, Леонор Варела, Джон Боуи, Арт Малик, Надим Савалха, Оуэн Тил, Филип Куэст, Дара О`Мэлли, Жозефин Аманква, Элизабет Дермот Уолш, Ральф Браун, Джеймс Космо, Денис Куилли, Джеймс Сэксон, Амина Аннаби, Одед Фер, Стефен Дженн, Эшли Л. Кларк, Омид Джалили, Тим Барлоу, Энтони Банси, Эйс Бхатти, Марк Хилл, Мэттью Бартлетт, Ричард Армитаж, Наим Кхан Турк, Симона Харпер, Карим Дуккали, Патрик Гордон, Саймон Де Сельва, Карлтон Хэдли, ...

О фильме:
Роковая царица Египта и легендарная тайна ее чар. «Мужчины должны верить: что бы ты не отдала, ему есть что еще завоевать.» 20-летняя законная царица Египта в изгнании, ее трон захвачен братом и сестрой. Клеопатра жаждет вернуть себе трон, Юлий Цезарь желает вернуть себе дань, которую ему перестали платить египтяне, и завоевать весь мир. Ночь, проведенная вместе, круто меняет жизнь обоих…





Кодек: x264
Качество: DVDRip-AVC
Видео: 704x536, 2500 kbps, 23,976 fps
Аудио #1: AC-3, 2 ch, 256 kbps (Rus) - MVO Екатеринбург-Арт (VHS)
Аудио #2: AC-3, 2 ch, 192 kbps (Rus) - DVO Zone Vision Studio (TV Hallmark)
Аудио #3: AC-3, 2 ch, 192 kbps (Rus) - AVO Визгунов Сергей
Аудио #4: AC-3, 2 ch, 192 kbps (Eng)
Субтитры: Английские

За исходник спасибо - ilya_l
За оцифровку VHS от Екатеринбург-Арт, спасибо Pentaclto
За оцифровку записи с телеканала Hallmark, спасибо Fikaloid.
Визгунов с раздачи bilko и ему спасибо.

x264 [info]: frame I:1522 Avg QP:14.16 size: 52838
x264 [info]: frame P:57575 Avg QP:16.75 size: 23635
x264 [info]: frame B:191785 Avg QP:18.93 size: 9532
x264 [info]: consecutive B-frames: 1.7% 1.9% 6.7% 36.9% 27.4% 18.8% 4.1% 1.6% 0.6% 0.3% 0.1% 0.0% 0.0% 0.0% 0.0%

Общее
Уникальный идентификатор : 211161190042682414877328342272519516051 (0x9EDC2A7864D453F89C61576398992F93)
Полное имя : Клеопатра Cleopatra 1999 DVDRip.mkv
Формат : Matroska
Версия формата : Version 2
Размер файла : 4,06 Гбайт
Продолжительность : 2 ч. 54 м.
Общий поток : 3334 Кбит/сек
Дата кодирования : UTC 2020-10-07 17:42:34
Программа кодирования : mkvmerge v4.0.0 ('The Stars were mine') сборка от Jun 6 2010 16:18:42
Библиотека кодирования : libebml v1.0.0 + libmatroska v1.0.0

Видео
Идентификатор : 1
Формат : AVC
Формат/Информация : Advanced Video Codec
Профиль формата : High@L4.1
Параметр CABAC формата : Да
Параметр ReFrames формата : 10 кадров
Идентификатор кодека : V_MPEG4/ISO/AVC
Продолжительность : 2 ч. 54 м.
Битрейт : 2500 Кбит/сек
Ширина : 704 пикселя
Высота : 536 пикселей
Соотношение сторон : 4:3
Режим частоты кадров : Постоянный
Частота кадров : 23,976 (24000/1001) кадра/сек
Цветовое пространство : YUV
Субдискретизация насыщенности : 4:2:0
Битовая глубина : 8 бит
Тип развёртки : Прогрессивная
Бит/(Пиксели*Кадры) : 0.276
Размер потока : 2,97 Гбайт (73%)
Библиотека кодирования : x264 core 146 r2538 121396c
Настройки программы : cabac=1 / ref=10 / deblock=1:-1:-1 / analyse=0x3:0x133 / me=umh / subme=11 / psy=1 / psy_rd=1.00:0.00 / mixed_ref=1 / me_range=32 / chroma_me=1 / trellis=2 / 8x8dct=1 / cqm=0 / deadzone=21,11 / fast_pskip=0 / chroma_qp_offset=-2 / threads=12 / lookahead_threads=2 / sliced_threads=0 / nr=0 / decimate=0 / interlaced=0 / bluray_compat=0 / constrained_intra=0 / bframes=14 / b_pyramid=2 / b_adapt=2 / b_bias=0 / direct=3 / weightb=1 / open_gop=0 / weightp=2 / keyint=240 / keyint_min=23 / scenecut=40 / intra_refresh=0 / rc=2pass / mbtree=0 / bitrate=2500 / ratetol=1.0 / qcomp=0.60 / qpmin=0 / qpmax=69 / qpstep=4 / cplxblur=20.0 / qblur=0.5 / ip_ratio=1.40 / pb_ratio=1.30 / aq=2:0.80
Язык : English
Default : Нет
Forced : Нет

Аудио #1
Идентификатор : 2
Формат : AC-3
Формат/Информация : Audio Coding 3
Расширение режима : CM (complete main)
Параметр Endianness формата : Big
Идентификатор кодека : A_AC3
Продолжительность : 2 ч. 54 м.
Вид битрейта : Постоянный
Битрейт : 256 Кбит/сек
Каналы : 2 канала
Расположение каналов : Front: L R
Частота : 48,0 КГц
Частота кадров : 31,250 кадров/сек (1536 spf)
Метод сжатия : С потерями
Размер потока : 319 Мбайт (8%)
Заголовок : MVO Екатеринбург-Арт (VHS)
Язык : Russian
Default : Нет
Forced : Нет

Аудио #2
Идентификатор : 3
Формат : AC-3
Формат/Информация : Audio Coding 3
Расширение режима : CM (complete main)
Параметр Endianness формата : Big
Идентификатор кодека : A_AC3
Продолжительность : 2 ч. 54 м.
Вид битрейта : Постоянный
Битрейт : 192 Кбит/сек
Каналы : 2 канала
Расположение каналов : Front: L R
Частота : 48,0 КГц
Частота кадров : 31,250 кадров/сек (1536 spf)
Метод сжатия : С потерями
Размер потока : 239 Мбайт (6%)
Заголовок : DVO Zone Vision Studio (TV Hallmark)
Язык : Russian
Default : Нет
Forced : Нет

Аудио #3
Идентификатор : 4
Формат : AC-3
Формат/Информация : Audio Coding 3
Расширение режима : CM (complete main)
Параметр Endianness формата : Big
Идентификатор кодека : A_AC3
Продолжительность : 2 ч. 54 м.
Вид битрейта : Постоянный
Битрейт : 192 Кбит/сек
Каналы : 2 канала
Расположение каналов : Front: L R
Частота : 48,0 КГц
Частота кадров : 31,250 кадров/сек (1536 spf)
Метод сжатия : С потерями
Размер потока : 239 Мбайт (6%)
Заголовок : AVO Визгунов Сергей
Язык : Russian
Default : Нет
Forced : Нет

Аудио #4
Идентификатор : 5
Формат : AC-3
Формат/Информация : Audio Coding 3
Профиль формата : Dolby Digital
Расширение режима : CM (complete main)
Параметр Endianness формата : Big
Идентификатор кодека : A_AC3
Продолжительность : 2 ч. 54 м.
Вид битрейта : Постоянный
Битрейт : 192 Кбит/сек
Каналы : 2 канала
Расположение каналов : Front: L R
Частота : 48,0 КГц
Частота кадров : 31,250 кадров/сек (1536 spf)
Метод сжатия : С потерями
Размер потока : 239 Мбайт (6%)
Язык : English
Default : Нет
Forced : Нет

Текст
Идентификатор : 6
Формат : UTF-8
Идентификатор кодека : S_TEXT/UTF8
Идентификатор кодека/Информация : UTF-8 Plain Text
Язык : English
Default : Нет
Forced : Нет

Меню
00:00:00.066 : en:Chapter 01
00:02:38.525 : en:Chapter 02
00:05:25.892 : en:Chapter 03
00:11:07.633 : en:Chapter 04
00:15:46.011 : en:Chapter 05
00:19:59.464 : en:Chapter 06
00:25:02.367 : en:Chapter 07
00:31:09.133 : en:Chapter 08
00:39:18.222 : en:Chapter 09
00:44:03.607 : en:Chapter 10
00:48:06.350 : en:Chapter 11
00:54:10.814 : en:Chapter 12
00:59:26.429 : en:Chapter 13
01:03:30.573 : en:Chapter 14
01:09:13.916 : en:Chapter 15
01:13:57.900 : en:Chapter 16
01:17:22.304 : en:Chapter 17
01:22:35.917 : en:Chapter 18
01:29:41.943 : en:Chapter 19
01:34:34.835 : en:Chapter 20
01:38:01.542 : en:Chapter 21
01:44:52.953 : en:Chapter 22
01:50:19.479 : en:Chapter 23
01:54:40.039 : en:Chapter 24
01:58:50.890 : en:Chapter 25
02:04:45.644 : en:Chapter 26
02:12:08.186 : en:Chapter 27
02:17:56.835 : en:Chapter 28
02:23:41.279 : en:Chapter 29
02:27:57.535 : en:Chapter 30
02:32:36.714 : en:Chapter 31
02:38:06.643 : en:Chapter 32
02:44:01.698 : en:Chapter 33
02:48:31.968 : en:Chapter 34
02:48:32.469 : en:Chapter 35


Sovetnik
Аватара пользователя
 
Раздал: 32.13 ТБ
Скачал: 13.11 ГБ
Ратио: 2510.256
Сообщения: 1773
Зарегистрирован: 13 фев 2014, 05:19
  • Торрент
Автор: Sovetnik Хэш: ---
Добавлен: 08 окт 2020, 11:52 Приватный: Нет (DHT включён)
Статус: Проверен
Размер: 4.06 ГБ (4 360 813 162 байт)
Изменил:
---
Скачали: 5 (Раздающих: 0%)
Причина:
---
Здоровье: 100%
Сидеров: 3 Личеров: 2
Скорость раздачи: 0 байт/сек Скорость скачивания: 0 байт/сек
Последний сидер: 10 дней 22 часа 27 минут 14 секунд назад Последний личер: 10 дней 22 часа 27 минут 14 секунд назад
Для скачивания торрента необходимо зарегистрироваться или войти на трекер.

Форум Статистика

Кто сейчас на конференции

Сейчас этот форум просматривают: нет зарегистрированных пользователей и гости: 1

  • Похожие торренты
    Ответы
    Просмотры
    Последнее сообщение

Настройки

Вернуться в Эротика / XXX

cron
Ресурс не предоставляет электронные версии произведений, а занимается лишь коллекционированием и каталогизацией ссылок, присылаемых и публикуемых на форуме нашими читателями. Если вы являетесь правообладателем какого-либо представленного материала и не желаете чтобы ссылка на него находилась в нашем каталоге, свяжитесь с нами и мы незамедлительно удалим её. Файлы для обмена на трекере предоставлены пользователями сайта, и администрация не несёт ответственности за их содержание. Просьба не заливать файлы, защищенные авторскими правами, а также файлы нелегального содержания!
tracker_cron