Модераторы: K15, Модераторы, Младшие модераторы

Детям до 16... (Андрей Кавун) [2010, Мелодрама, эротика, DVDRip-AVC]

Сообщение Sovetnik » 20 апр 2020, 06:59

Детям до 16...


#777

Информация о фильме
Название: Детям до 16...
Год выхода: 2010
Страна: Россия
Студия: Кинокомпания "Красная Стрела"
Продолжительность: 01:28:56
Язык: Русский
Жанр: Мелодрама, эротика

Режиссер: Андрей Кавун

В ролях:
Лянка Грыу, Анна Старшенбаум, Павел Прилучный, Дмитрий Кубасов, Родион Долгирев, Алексей Горбунов, Ирина Мерцалова, Алексей Шевченков, Ольга Хохлова, Валерий Тодоровский

О фильме:
История взросления четырех молодых людей - двоих юношей и двух девушек. Вчерашние школьники, они входят в жизнь, полную, как им кажется, чудесных открытий и блестящих возможностей. Неопытные в чувствах и отношениях, они со всего подросткового разбега учатся влюбляться и лгать, приносить себя в жертву и изменять, иногда учась на своих ошибках, иногда – понимая неприятную правду о себе. Четверка героев сплетается в самые разные треугольники отношений, и от столкновения их граней летят искры.Бывшие друзья становятся врагами, любовниками, мужьями и женами. Вчера их связывала дружба – сегодня она уступила место лжи, любви, предательству.





Файл
Формат: MKV
Качество: DVDRip-AVC
Видео: MPEG-4 AVC, 720x388, - 1094 Кбит/с
Аудио: AAC-HE, 2 ch, - 76 Кбит/с
Субтитры: Нет

Общее
Уникальный идентификатор : 106596898177365618101210473762422284322 (0x5031D0D9706E02E300168DD9816C6022)
Полное имя : D:MOVIESDetyam.do.16.2010.DVDRip-AVC.ExKinoRay.mkv
Формат : Matroska
Версия формата : Version 4
Размер файла : 745 Мбайт
Продолжительность : 1 ч. 28 м.
Общий поток : 1 172 Кбит/сек
Дата кодирования : UTC 2020-04-19 13:58:06
Программа кодирования : mkvmerge v45.0.0 ('Heaven in Pennies') 64-bit
Библиотека кодирования : libebml v1.3.10 + libmatroska v1.5.2

Видео
Идентификатор : 1
Формат : AVC
Формат/Информация : Advanced Video Codec
Профиль формата : High@L4.1
Настройки формата : CABAC / 11 Ref Frames
Параметр CABAC формата : Да
Параметр RefFrames формата : 11 кадров
Идентификатор кодека : V_MPEG4/ISO/AVC
Продолжительность : 1 ч. 28 м.
Битрейт : 1 094 Кбит/сек
Ширина : 720 пикселей
Высота : 388 пикселей
Соотношение сторон : 1,85:1
Режим частоты кадров : Постоянный
Частота кадров : 25,000 кадров/сек
Цветовое пространство : YUV
Субдискретизация насыщенности : 4:2:0
Битовая глубина : 8 бит
Тип развёртки : Прогрессивная
Бит/(Пиксели*Кадры) : 0.157
Размер потока : 696 Мбайт (93%)
Библиотека кодирования : x264 core 160 r3000 33f9e14
Настройки программы : cabac=1 / ref=11 / deblock=1:-3:-2 / analyse=0x3:0x133 / me=umh / subme=10 / psy=1 / psy_rd=1.05:0.14 / mixed_ref=1 / me_range=32 / chroma_me=1 / trellis=2 / 8x8dct=1 / cqm=0 / deadzone=21,11 / fast_pskip=0 / chroma_qp_offset=-3 / threads=6 / lookahead_threads=1 / sliced_threads=0 / nr=0 / decimate=0 / interlaced=0 / bluray_compat=0 / constrained_intra=0 / bframes=14 / b_pyramid=2 / b_adapt=2 / b_bias=0 / direct=3 / weightb=1 / open_gop=0 / weightp=2 / keyint=250 / keyint_min=25 / scenecut=40 / intra_refresh=0 / rc=2pass / mbtree=0 / bitrate=1094 / ratetol=1.0 / qcomp=0.60 / qpmin=0 / qpmax=69 / qpstep=4 / cplxblur=20.0 / qblur=0.5 / ip_ratio=1.40 / pb_ratio=1.30 / aq=1:1.00
Default : Да
Forced : Нет
Цветовой диапазон : Limited
Основные цвета : BT.601 PAL
Характеристики трансфера : BT.470 System B/G
Коэффициенты матрицы : BT.470 System B/G

Аудио
Идентификатор : 2
Формат : AAC LC SBR
Формат/Информация : Advanced Audio Codec Low Complexity with Spectral Band Replication
Коммерческое название : HE-AAC
Настройки формата : Explicit
Идентификатор кодека : A_AAC-2
Продолжительность : 1 ч. 28 м.
Битрейт : 76,0 Кбит/сек
Каналы : 2 канала
Channel layout : L R
Частота : 48,0 КГц
Частота кадров : 23,438 кадра/сек (2048 SPF)
Метод сжатия : С потерями
Задержка видео : 31 мс.
Размер потока : 48,3 Мбайт (6%)
Default : Да
Forced : Нет

Меню
00:00:00.000 : en:Chapter 01
00:10:06.240 : en:Chapter 02
00:20:06.320 : en:Chapter 03
00:30:02.880 : en:Chapter 04
00:40:21.160 : en:Chapter 05
00:52:05.560 : en:Chapter 06
01:03:53.960 : en:Chapter 07
01:16:01.760 : en:Chapter 08



Sovetnik
Аватара пользователя
 
Раздал: 32.13 ТБ
Скачал: 13.11 ГБ
Ратио: 2510.256
Сообщения: 1817
Зарегистрирован: 13 фев 2014, 05:19
  • Торрент
Автор: Sovetnik Хэш: ---
Добавлен: 20 апр 2020, 06:59 Приватный: Нет (DHT включён)
Статус: Проверен
Размер: 745.27 МБ (781 472 540 байт)
Изменил:
---
Скачали: 45 (Раздающих: 0%)
Причина:
---
Здоровье: 100%
Сидеров: 14 Личеров: 1
Скорость раздачи: 0 байт/сек Скорость скачивания: 0 байт/сек
Последний сидер: 12 дней 20 часов 36 минут 44 секунды назад Последний личер: 12 дней 20 часов 36 минут 44 секунды назад
Для скачивания торрента необходимо зарегистрироваться или войти на трекер.

Форум Статистика

Кто сейчас на конференции

Сейчас этот форум просматривают: нет зарегистрированных пользователей и гости: 1

  • Похожие торренты
    Ответы
    Просмотры
    Последнее сообщение

Настройки

Вернуться в Эротика / XXX

cron
Ресурс не предоставляет электронные версии произведений, а занимается лишь коллекционированием и каталогизацией ссылок, присылаемых и публикуемых на форуме нашими читателями. Если вы являетесь правообладателем какого-либо представленного материала и не желаете чтобы ссылка на него находилась в нашем каталоге, свяжитесь с нами и мы незамедлительно удалим её. Файлы для обмена на трекере предоставлены пользователями сайта, и администрация не несёт ответственности за их содержание. Просьба не заливать файлы, защищенные авторскими правами, а также файлы нелегального содержания!
tracker_cron