Модераторы: Младшие модераторы, Модераторы

ВВС: Правда о том, как быть в форме / The Truth About Getting fit (Кейт Прингл) [2018, Документальный, DVB | P2]

Сообщение Basmac4 » 23 ноя 2019, 00:36

ВВС: Правда о том, как быть в форме / The Truth About Getting fit


#777

Информация о фильме
Название: Правда о том, как быть в форме
Оригинальное название: The Truth About Getting fit
Год выхода: 2018
Страна: Великобритания
Студия: BBC Studios
Продолжительность: 00:49:21
Перевод: Профессиональный (двухголосый закадровый) Видеофильм ТВ
Жанр: Документальный

Режиссер: Кейт Прингл

В ролях: Майкл Мосли

О фильме:
Какое минимальное количество физических упражнений нужно делать, чтобы прожить долгую и здоровую жизнь? Достаточно ли заниматься 2 минуты в неделю? Тяжелые или легкие веса использовать для наращивания мышечной массы? Может ли физическая активность улучшить психологическое состояние? Майкл Мосли объединяется с учеными, чьи последние исследования превращают общеизвестные знания о фитнесе с ног на голову расскажет, как сохранить физическую форму с умом!



Семпл


Файл
Кодек: AVC/H.264
Качество: DVB
Видео: 720x576@1047x576 (16:9) AVC (H.264) Main@L3.0, ~ 1736 kbps, 25fps
Звук: Русский 48 kHz, MPEG Layer 2, 2 ch, ~192.00 kbps avg



Complete name : F:НаладкиSD-фильмыПравда о том, как быть в форме.ts
Format : MPEG-TS
File size : 717 MiB
Duration : 49 min 21 s
Overall bit rate mode : Variable
Overall bit rate : 2 030 kb/s

Video
ID : 401 (0x191)
Menu ID : 2608 (0xA30)
Format : AVC
Format/Info : Advanced Video Codec
Format profile : Main@L3
Format settings : CABAC / 4 Ref Frames
Format settings, CABAC : Yes
Format settings, Reference : 4 frames
Codec ID : 27
Duration : 49 min 21 s
Bit rate : 1 736 kb/s
Width : 720 pixels
Height : 576 pixels
Display aspect ratio : 16:9
Frame rate : 25.000 FPS
Standard : Component
Color space : YUV
Chroma subsampling : 4:2:0
Bit depth : 8 bits
Scan type : Interlaced
Scan type, store method : Separated fields
Scan order : Top Field First
Bits/(Pixel*Frame) : 0.167
Stream size : 613 MiB (86%)
Color range : Limited
Color primaries : BT.601 PAL
Transfer characteristics : BT.470 System B/G
Matrix coefficients : BT.470 System B/G

Audio
ID : 402 (0x192)
Menu ID : 2608 (0xA30)
Format : MPEG Audio
Format version : Version 1
Format profile : Layer 2
Codec ID : 3
Duration : 49 min 21 s
Bit rate mode : Constant
Bit rate : 192 kb/s
Channel(s) : 2 channels
Sampling rate : 48.0 kHz
Frame rate : 41.667 FPS (1152 SPF)
Compression mode : Lossy
Delay relative to video : -80 ms
Stream size : 67.8 MiB (9%)
Language : Russian


Релиз от: kyba
Basmac4
Аватара пользователя
 
Раздал: 1.98 ТБ
Скачал: 3.04 ГБ
Ратио: 668.049
Сообщения: 25
Зарегистрирован: 01 июл 2014, 16:45
  • Торрент
Автор: Basmac4 Хэш: ---
Добавлен: 23 ноя 2019, 00:36 Приватный: Нет (DHT включён)
Статус: Проверен
Размер: 716.81 МБ (751 633 964 байт)
Изменил:
---
Скачали: 4 (Раздающих: 0%)
Причина:
---
Здоровье: 100%
Сидеров: 52 Личеров: 1
Скорость раздачи: 0 байт/сек Скорость скачивания: 0 байт/сек
Последний сидер: 19 дней 4 часа 27 минут 47 секунд назад Последний личер: 19 дней 4 часа 27 минут 47 секунд назад
Для скачивания торрента необходимо зарегистрироваться или войти на трекер.

Форум Статистика

Кто сейчас на конференции

Сейчас этот форум просматривают: нет зарегистрированных пользователей и гости: 8

  • Похожие торренты
    Ответы
    Просмотры
    Последнее сообщение

Настройки

Вернуться в TV / Документалки

cron
Ресурс не предоставляет электронные версии произведений, а занимается лишь коллекционированием и каталогизацией ссылок, присылаемых и публикуемых на форуме нашими читателями. Если вы являетесь правообладателем какого-либо представленного материала и не желаете чтобы ссылка на него находилась в нашем каталоге, свяжитесь с нами и мы незамедлительно удалим её. Файлы для обмена на трекере предоставлены пользователями сайта, и администрация не несёт ответственности за их содержание. Просьба не заливать файлы, защищенные авторскими правами, а также файлы нелегального содержания!
cron