Модераторы: Модераторы, Младшие модераторы

VA - Летний марафон № 46 (Зарубежный хит)

Сообщение ViKa » 08 май 2014, 22:12

  • Постеры
Формат: HDTVRip, MP4, AVC, AAC
Песня: Зарубежный хит
Жанр: Dance, Pop, Latin
Продолжительность: 00:35:30
Год выпуска: 2013
Видео: 1920:1080 (16:9), AVC, 23.976 ~ 25.000fps, 5.837 ~ 2.018 kbps avg, 0.113 ~ 0.039 bit.pixel
Аудио: 44.1 KHz, 2 ch, stereo, AAC, ~ 192 Kbps avg

Доп. информация:
Последние июльские новинки танцевальных хитов "new'' (01-05.07.2013)

Треклист:
1. Alina - Tu esti vara mea (official video) (00:03:06)
2. Amfree feat. Ziya - Let Go (Official Video) (00:03:02)
3. K. Michelle - V.S.O.P. (Official Video) (00:03:33)
4. Loreen - My Heart Is Refusing Me (Official Video) (00:04:40)
5. Pink ft. Lily Allen - True Love (Official Video) (00:03:52)
6. Red Blonde feat. Krem - BLL ( Be Le Le ) (Official Video) (00:03:31)
7. Tacabro feat. Prado-Grau Orchestra Bagutti - Tic Tic Tac (Official Video) (00:03:06)
8. Taylor Swift ft. Ed Sheeran - Everything Has Changed (Official Video) (00:04:11)
9. Tom Boxer Morena ft. Sirreal - Summertime (Official Video) (00:03:54)
10. Zaho - Tout Est Pareil (Official Video) (00:03:55)

Общее
Полное имя : E:\VA - Летний марафон № 47 (Зарубежный хит)\Alina - Tu esti vara mea (official video).mp4
Формат : MPEG-4
Профиль формата : Base Media / Version 2
Идентификатор кодека : mp42
Размер файла : 90,4 Мбайт
Продолжительность : 3 м. 6 с.
Общий поток : 4076 Кбит/сек
Дата кодирования : UTC 2013-06-19 13:44:04
Дата пометки : UTC 2013-06-19 13:44:04
gsst : 0
gstd : 186106
gssd : BADC21221HH1372594509469863
gshh : r1---fra02s02.c.youtube.com

Видео
Идентификатор : 1
Формат : AVC
Формат/Информация : Advanced Video Codec
Профиль формата : High@L4.0
Параметр CABAC формата : Да
Параметр ReFrames формата : 1 кадр
Идентификатор кодека : avc1
Идентификатор кодека/Информация : Advanced Video Coding
Продолжительность : 3 м. 6 с.
Вид битрейта : Переменный
Битрейт : 3882 Кбит/сек
Максимальный битрейт : 7379 Кбит/сек
Ширина : 1920 пикселей
Высота : 1080 пикселей
Соотношение сторон : 16:9
Режим частоты кадров : Постоянный
Частота кадров : 25,000 кадров/сек
Цветовое пространство : YUV
Субдискретизация насыщенности : 4:2:0
Битовая глубина : 8 бит
Тип развёртки : Прогрессивная
Бит/(Пиксели*Кадры) : 0.075
Размер потока : 86,1 Мбайт (95%)
Дата пометки : UTC 2013-06-19 13:44:10

Аудио
Идентификатор : 2
Формат : AAC
Формат/Информация : Advanced Audio Codec
Профиль формата : LC
Идентификатор кодека : 40
Продолжительность : 3 м. 6 с.
Вид битрейта : Переменный
Битрейт : 192 Кбит/сек
Максимальный битрейт : 201 Кбит/сек
Каналы : 2 канала
Расположение каналов : Front: L R
Частота : 44,1 КГц
Метод сжатия : С потерями
Размер потока : 4,26 Мбайт (5%)
Заголовок : IsoMedia File Produced by Google, 5-11-2011
Дата кодирования : UTC 2013-06-19 13:44:09
Дата пометки : UTC 2013-06-19 13:44:10

Общее
Полное имя : E:\VA - Летний марафон № 47 (Зарубежный хит)\Amfree feat. Ziya - Let Go (Official Video).mp4
Формат : MPEG-4
Профиль формата : Base Media / Version 2
Идентификатор кодека : mp42
Размер файла : 97,6 Мбайт
Продолжительность : 3 м. 2 с.
Общий поток : 4477 Кбит/сек
Дата кодирования : UTC 2013-06-30 10:28:15
Дата пометки : UTC 2013-06-30 10:28:15
gsst : 0
gstd : 182950
gssd : B4A7D0844HH1372690054018878
gshh : r16---sn-5hn7snek.c.youtube.com

Видео
Идентификатор : 1
Формат : AVC
Формат/Информация : Advanced Video Codec
Профиль формата : High@L4.0
Параметр CABAC формата : Да
Параметр ReFrames формата : 1 кадр
Идентификатор кодека : avc1
Идентификатор кодека/Информация : Advanced Video Coding
Продолжительность : 3 м. 2 с.
Вид битрейта : Переменный
Битрейт : 4283 Кбит/сек
Максимальный битрейт : 13,0 Мбит/сек
Ширина : 1920 пикселей
Высота : 1080 пикселей
Соотношение сторон : 16:9
Режим частоты кадров : Постоянный
Частота кадров : 25,000 кадров/сек
Цветовое пространство : YUV
Субдискретизация насыщенности : 4:2:0
Битовая глубина : 8 бит
Тип развёртки : Прогрессивная
Бит/(Пиксели*Кадры) : 0.083
Размер потока : 93,3 Мбайт (96%)
Дата пометки : UTC 2013-06-30 10:28:22

Аудио
Идентификатор : 2
Формат : AAC
Формат/Информация : Advanced Audio Codec
Профиль формата : LC
Идентификатор кодека : 40
Продолжительность : 3 м. 2 с.
Вид битрейта : Переменный
Битрейт : 192 Кбит/сек
Максимальный битрейт : 201 Кбит/сек
Каналы : 2 канала
Расположение каналов : Front: L R
Частота : 44,1 КГц
Метод сжатия : С потерями
Размер потока : 4,18 Мбайт (4%)
Заголовок : IsoMedia File Produced by Google, 5-11-2011
Дата кодирования : UTC 2013-06-30 10:28:20
Дата пометки : UTC 2013-06-30 10:28:22

Общее
Полное имя : E:\VA - Летний марафон № 47 (Зарубежный хит)\K. Michelle - V.S.O.P. (Official Video).mp4
Формат : MPEG-4
Профиль формата : Base Media / Version 2
Идентификатор кодека : mp42
Размер файла : 92,7 Мбайт
Продолжительность : 3 м. 33 с.
Общий поток : 3633 Кбит/сек
Дата кодирования : UTC 2013-06-28 16:07:32
Дата пометки : UTC 2013-06-28 16:07:32
gsst : 0
gstd : 214110
gssd : B5D9D0A05HH1372709105406849
gshh : r2---sn-nvop3v-qv3e.c.youtube.com

Видео
Идентификатор : 1
Формат : AVC
Формат/Информация : Advanced Video Codec
Профиль формата : High@L4.0
Параметр CABAC формата : Да
Параметр ReFrames формата : 1 кадр
Идентификатор кодека : avc1
Идентификатор кодека/Информация : Advanced Video Coding
Продолжительность : 3 м. 33 с.
Вид битрейта : Переменный
Битрейт : 3438 Кбит/сек
Максимальный битрейт : 6424 Кбит/сек
Ширина : 1920 пикселей
Высота : 1080 пикселей
Соотношение сторон : 16:9
Режим частоты кадров : Постоянный
Частота кадров : 23,976 кадра/сек
Цветовое пространство : YUV
Субдискретизация насыщенности : 4:2:0
Битовая глубина : 8 бит
Тип развёртки : Прогрессивная
Бит/(Пиксели*Кадры) : 0.069
Размер потока : 87,7 Мбайт (95%)
Дата пометки : UTC 2013-06-28 16:07:34

Аудио
Идентификатор : 2
Формат : AAC
Формат/Информация : Advanced Audio Codec
Профиль формата : LC
Идентификатор кодека : 40
Продолжительность : 3 м. 33 с.
Вид битрейта : Переменный
Битрейт : 192 Кбит/сек
Максимальный битрейт : 202 Кбит/сек
Каналы : 2 канала
Расположение каналов : Front: L R
Частота : 44,1 КГц
Метод сжатия : С потерями
Размер потока : 4,90 Мбайт (5%)
Заголовок : IsoMedia File Produced by Google, 5-11-2011
Дата кодирования : UTC 2013-06-28 16:07:33
Дата пометки : UTC 2013-06-28 16:07:34

Общее
Полное имя : E:\VA - Летний марафон № 47 (Зарубежный хит)\Loreen - My Heart Is Refusing Me (Official Video).mp4
Формат : MPEG-4
Профиль формата : Base Media / Version 2
Идентификатор кодека : mp42
Размер файла : 73,5 Мбайт
Продолжительность : 4 м. 38 с.
Общий поток : 2213 Кбит/сек
Дата кодирования : UTC 2013-06-27 16:21:19
Дата пометки : UTC 2013-06-27 16:21:19
gsst : 0
gstd : 278893
gssd : BADC232E4HH1372708423502790
gshh : r14---sn-5hn7snld.c.youtube.com

Видео
Идентификатор : 1
Формат : AVC
Формат/Информация : Advanced Video Codec
Профиль формата : High@L4.0
Параметр CABAC формата : Да
Параметр ReFrames формата : 1 кадр
Идентификатор кодека : avc1
Идентификатор кодека/Информация : Advanced Video Coding
Продолжительность : 4 м. 38 с.
Вид битрейта : Переменный
Битрейт : 2018 Кбит/сек
Максимальный битрейт : 8910 Кбит/сек
Ширина : 1920 пикселей
Высота : 1080 пикселей
Соотношение сторон : 16:9
Режим частоты кадров : Постоянный
Частота кадров : 25,000 кадров/сек
Цветовое пространство : YUV
Субдискретизация насыщенности : 4:2:0
Битовая глубина : 8 бит
Тип развёртки : Прогрессивная
Бит/(Пиксели*Кадры) : 0.039
Размер потока : 67,1 Мбайт (91%)
Дата пометки : UTC 2013-06-27 16:21:22

Аудио
Идентификатор : 2
Формат : AAC
Формат/Информация : Advanced Audio Codec
Профиль формата : LC
Идентификатор кодека : 40
Продолжительность : 4 м. 38 с.
Вид битрейта : Переменный
Битрейт : 192 Кбит/сек
Максимальный битрейт : 202 Кбит/сек
Каналы : 2 канала
Расположение каналов : Front: L R
Частота : 44,1 КГц
Метод сжатия : С потерями
Размер потока : 6,38 Мбайт (9%)
Заголовок : IsoMedia File Produced by Google, 5-11-2011
Дата кодирования : UTC 2013-06-27 16:21:21
Дата пометки : UTC 2013-06-27 16:21:22

Общее
Полное имя : E:\VA - Летний марафон № 47 (Зарубежный хит)\Pink ft. Lily Allen - True Love (Official Video).mp4
Формат : MPEG-4
Профиль формата : Base Media / Version 2
Идентификатор кодека : mp42
Размер файла : 163 Мбайт
Продолжительность : 3 м. 52 с.
Общий поток : 5906 Кбит/сек
Дата кодирования : UTC 2013-06-26 17:34:34
Дата пометки : UTC 2013-06-26 17:34:34
gsst : 0
gstd : 232268
gssd : B4A7DDA87HH1372662156938604
gshh : r7---sn-4g57kue6.c.youtube.com

Видео
Идентификатор : 1
Формат : AVC
Формат/Информация : Advanced Video Codec
Профиль формата : High@L4.0
Параметр CABAC формата : Да
Параметр ReFrames формата : 1 кадр
Идентификатор кодека : avc1
Идентификатор кодека/Информация : Advanced Video Coding
Продолжительность : 3 м. 52 с.
Вид битрейта : Переменный
Битрейт : 5712 Кбит/сек
Максимальный битрейт : 21,8 Мбит/сек
Ширина : 1920 пикселей
Высота : 1080 пикселей
Соотношение сторон : 16:9
Режим частоты кадров : Постоянный
Частота кадров : 25,000 кадров/сек
Цветовое пространство : YUV
Субдискретизация насыщенности : 4:2:0
Битовая глубина : 8 бит
Тип развёртки : Прогрессивная
Бит/(Пиксели*Кадры) : 0.110
Размер потока : 158 Мбайт (97%)
Дата пометки : UTC 2013-06-26 17:35:30

Аудио
Идентификатор : 2
Формат : AAC
Формат/Информация : Advanced Audio Codec
Профиль формата : LC
Идентификатор кодека : 40
Продолжительность : 3 м. 52 с.
Вид битрейта : Переменный
Битрейт : 192 Кбит/сек
Максимальный битрейт : 203 Кбит/сек
Каналы : 2 канала
Расположение каналов : Front: L R
Частота : 44,1 КГц
Метод сжатия : С потерями
Размер потока : 5,31 Мбайт (3%)
Заголовок : IsoMedia File Produced by Google, 5-11-2011
Дата кодирования : UTC 2013-06-26 17:35:15
Дата пометки : UTC 2013-06-26 17:35:30

Общее
Полное имя : E:\VA - Летний марафон № 47 (Зарубежный хит)\Red Blonde feat. Krem - BLL ( Be Le Le ) (Official Video).mp4
Формат : MPEG-4
Профиль формата : Base Media / Version 2
Идентификатор кодека : mp42
Размер файла : 82,0 Мбайт
Продолжительность : 3 м. 31 с.
Общий поток : 3246 Кбит/сек
Дата кодирования : UTC 2013-04-09 02:05:00
Дата пометки : UTC 2013-04-09 02:05:00
gsst : 0
gstd : 212113
gssd : BB22DFB47HH1366437299266638
gshh : r4---sn-gvnuxaxjvh-304l.c.youtube.com

Видео
Идентификатор : 1
Формат : AVC
Формат/Информация : Advanced Video Codec
Профиль формата : High@L4.0
Параметр CABAC формата : Да
Параметр ReFrames формата : 1 кадр
Идентификатор кодека : avc1
Идентификатор кодека/Информация : Advanced Video Coding
Продолжительность : 3 м. 31 с.
Вид битрейта : Переменный
Битрейт : 3052 Кбит/сек
Максимальный битрейт : 6047 Кбит/сек
Ширина : 1920 пикселей
Высота : 1080 пикселей
Соотношение сторон : 16:9
Режим частоты кадров : Постоянный
Частота кадров : 25,000 кадров/сек
Цветовое пространство : YUV
Субдискретизация насыщенности : 4:2:0
Битовая глубина : 8 бит
Тип развёртки : Прогрессивная
Бит/(Пиксели*Кадры) : 0.059
Размер потока : 77,1 Мбайт (94%)
Дата пометки : UTC 2013-04-09 02:05:12

Аудио
Идентификатор : 2
Формат : AAC
Формат/Информация : Advanced Audio Codec
Профиль формата : LC
Идентификатор кодека : 40
Продолжительность : 3 м. 31 с.
Вид битрейта : Переменный
Битрейт : 192 Кбит/сек
Максимальный битрейт : 207 Кбит/сек
Каналы : 2 канала
Расположение каналов : Front: L R
Частота : 44,1 КГц
Метод сжатия : С потерями
Размер потока : 4,85 Мбайт (6%)
Заголовок : IsoMedia File Produced by Google, 5-11-2011
Дата кодирования : UTC 2013-04-09 02:05:10
Дата пометки : UTC 2013-04-09 02:05:12

Общее
Полное имя : E:\VA - Летний марафон № 47 (Зарубежный хит)\Tacabro feat. Prado-Grau Orchestra Bagutti - Tic Tic Tac (Official Video).mp4
Формат : MPEG-4
Профиль формата : Base Media / Version 2
Идентификатор кодека : mp42
Размер файла : 134 Мбайт
Продолжительность : 3 м. 6 с.
Общий поток : 6031 Кбит/сек
Дата кодирования : UTC 2013-06-19 10:34:38
Дата пометки : UTC 2013-06-19 10:34:38
gsst : 0
gstd : 186826
gssd : BADC20683MM1371733982766182
gshh : r11---sn-4g57knes.c.youtube.com

Видео
Идентификатор : 1
Формат : AVC
Формат/Информация : Advanced Video Codec
Профиль формата : High@L4.0
Параметр CABAC формата : Да
Параметр ReFrames формата : 1 кадр
Идентификатор кодека : avc1
Идентификатор кодека/Информация : Advanced Video Coding
Продолжительность : 3 м. 6 с.
Вид битрейта : Переменный
Битрейт : 5837 Кбит/сек
Максимальный битрейт : 9538 Кбит/сек
Ширина : 1920 пикселей
Высота : 1080 пикселей
Соотношение сторон : 16:9
Режим частоты кадров : Постоянный
Частота кадров : 25,000 кадров/сек
Цветовое пространство : YUV
Субдискретизация насыщенности : 4:2:0
Битовая глубина : 8 бит
Тип развёртки : Прогрессивная
Бит/(Пиксели*Кадры) : 0.113
Размер потока : 130 Мбайт (97%)
Дата пометки : UTC 2013-06-19 10:34:44

Аудио
Идентификатор : 2
Формат : AAC
Формат/Информация : Advanced Audio Codec
Профиль формата : LC
Идентификатор кодека : 40
Продолжительность : 3 м. 6 с.
Вид битрейта : Переменный
Битрейт : 192 Кбит/сек
Максимальный битрейт : 201 Кбит/сек
Каналы : 2 канала
Расположение каналов : Front: L R
Частота : 44,1 КГц
Метод сжатия : С потерями
Размер потока : 4,27 Мбайт (3%)
Заголовок : IsoMedia File Produced by Google, 5-11-2011
Дата кодирования : UTC 2013-06-19 10:34:43
Дата пометки : UTC 2013-06-19 10:34:44

Общее
Полное имя : E:\VA - Летний марафон № 47 (Зарубежный хит)\Taylor Swift ft. Ed Sheeran - Everything Has Changed (Official Video).mp4
Формат : MPEG-4
Профиль формата : Base Media / Version 2
Идентификатор кодека : mp42
Размер файла : 94,1 Мбайт
Продолжительность : 4 м. 11 с.
Общий поток : 3133 Кбит/сек
Дата кодирования : UTC 2013-06-04 01:06:31
Дата пометки : UTC 2013-06-04 01:06:31
gsst : 0
gstd : 252098
gssd : BADC21322HH1372274661823775
gshh : r5---sn-4g57lne7.c.youtube.com

Видео
Идентификатор : 1
Формат : AVC
Формат/Информация : Advanced Video Codec
Профиль формата : High@L4.0
Параметр CABAC формата : Да
Параметр ReFrames формата : 1 кадр
Идентификатор кодека : avc1
Идентификатор кодека/Информация : Advanced Video Coding
Продолжительность : 4 м. 11 с.
Вид битрейта : Переменный
Битрейт : 2939 Кбит/сек
Максимальный битрейт : 20,7 Мбит/сек
Ширина : 1920 пикселей
Высота : 1080 пикселей
Соотношение сторон : 16:9
Режим частоты кадров : Постоянный
Частота кадров : 24,000 кадра/сек
Цветовое пространство : YUV
Субдискретизация насыщенности : 4:2:0
Битовая глубина : 8 бит
Тип развёртки : Прогрессивная
Бит/(Пиксели*Кадры) : 0.059
Размер потока : 88,3 Мбайт (94%)
Дата пометки : UTC 2013-06-04 01:06:36

Аудио
Идентификатор : 2
Формат : AAC
Формат/Информация : Advanced Audio Codec
Профиль формата : LC
Идентификатор кодека : 40
Продолжительность : 4 м. 11 с.
Вид битрейта : Переменный
Битрейт : 192 Кбит/сек
Максимальный битрейт : 203 Кбит/сек
Каналы : 2 канала
Расположение каналов : Front: L R
Частота : 44,1 КГц
Метод сжатия : С потерями
Размер потока : 5,77 Мбайт (6%)
Заголовок : IsoMedia File Produced by Google, 5-11-2011
Дата кодирования : UTC 2013-06-04 01:06:35
Дата пометки : UTC 2013-06-04 01:06:36

Общее
Полное имя : E:\VA - Летний марафон № 47 (Зарубежный хит)\Tom Boxer Morena ft. Sirreal - Summertime (Official Video).mp4
Формат : MPEG-4
Профиль формата : Base Media / Version 2
Идентификатор кодека : mp42
Размер файла : 101 Мбайт
Продолжительность : 3 м. 54 с.
Общий поток : 3603 Кбит/сек
Дата кодирования : UTC 2013-06-30 06:58:17
Дата пометки : UTC 2013-06-30 06:58:17
gsst : 0
gstd : 234636
gssd : B4A7DDA26HH1372663646147035
gshh : r6---sn-4g57kuel.c.youtube.com

Видео
Идентификатор : 1
Формат : AVC
Формат/Информация : Advanced Video Codec
Профиль формата : High@L4.0
Параметр CABAC формата : Да
Параметр ReFrames формата : 1 кадр
Идентификатор кодека : avc1
Идентификатор кодека/Информация : Advanced Video Coding
Продолжительность : 3 м. 54 с.
Вид битрейта : Переменный
Битрейт : 3409 Кбит/сек
Максимальный битрейт : 7817 Кбит/сек
Ширина : 1920 пикселей
Высота : 1080 пикселей
Соотношение сторон : 16:9
Режим частоты кадров : Постоянный
Частота кадров : 25,000 кадров/сек
Цветовое пространство : YUV
Субдискретизация насыщенности : 4:2:0
Битовая глубина : 8 бит
Тип развёртки : Прогрессивная
Бит/(Пиксели*Кадры) : 0.066
Размер потока : 95,3 Мбайт (95%)
Дата пометки : UTC 2013-06-30 06:58:21

Аудио
Идентификатор : 2
Формат : AAC
Формат/Информация : Advanced Audio Codec
Профиль формата : LC
Идентификатор кодека : 40
Продолжительность : 3 м. 54 с.
Вид битрейта : Переменный
Битрейт : 192 Кбит/сек
Максимальный битрейт : 202 Кбит/сек
Каналы : 2 канала
Расположение каналов : Front: L R
Частота : 44,1 КГц
Метод сжатия : С потерями
Размер потока : 5,37 Мбайт (5%)
Заголовок : IsoMedia File Produced by Google, 5-11-2011
Дата кодирования : UTC 2013-06-30 06:58:20
Дата пометки : UTC 2013-06-30 06:58:21

Общее
Полное имя : E:\VA - Летний марафон № 47 (Зарубежный хит)\Zaho - Tout Est Pareil (Official Video).mp4
Формат : MPEG-4
Профиль формата : Base Media / Version 2
Идентификатор кодека : mp42
Размер файла : 95,9 Мбайт
Продолжительность : 3 м. 54 с.
Общий поток : 3425 Кбит/сек
Дата кодирования : UTC 2013-06-20 03:04:42
Дата пометки : UTC 2013-06-20 03:04:42
gsst : 0
gstd : 235078
gssd : B4A7DDA28MM1372663111890039
gshh : r8---sn-4g57kuel.c.youtube.com

Видео
Идентификатор : 1
Формат : AVC
Формат/Информация : Advanced Video Codec
Профиль формата : High@L4.0
Параметр CABAC формата : Да
Параметр ReFrames формата : 1 кадр
Идентификатор кодека : avc1
Идентификатор кодека/Информация : Advanced Video Coding
Продолжительность : 3 м. 54 с.
Вид битрейта : Переменный
Битрейт : 3230 Кбит/сек
Максимальный битрейт : 7391 Кбит/сек
Ширина : 1920 пикселей
Высота : 1080 пикселей
Соотношение сторон : 16:9
Режим частоты кадров : Постоянный
Частота кадров : 25,000 кадров/сек
Цветовое пространство : YUV
Субдискретизация насыщенности : 4:2:0
Битовая глубина : 8 бит
Тип развёртки : Прогрессивная
Бит/(Пиксели*Кадры) : 0.062
Размер потока : 90,5 Мбайт (94%)
Дата пометки : UTC 2013-06-20 03:04:45

Аудио
Идентификатор : 2
Формат : AAC
Формат/Информация : Advanced Audio Codec
Профиль формата : LC
Идентификатор кодека : 40
Продолжительность : 3 м. 54 с.
Вид битрейта : Переменный
Битрейт : 192 Кбит/сек
Максимальный битрейт : 201 Кбит/сек
Каналы : 2 канала
Расположение каналов : Front: L R
Частота : 44,1 КГц
Метод сжатия : С потерями
Размер потока : 5,38 Мбайт (6%)
Заголовок : IsoMedia File Produced by Google, 5-11-2011
Дата кодирования : UTC 2013-06-20 03:04:44
Дата пометки : UTC 2013-06-20 03:04:45



Формат: HDTVRip, MP4, AVC, AAC
Видео: 1920:1080 (16:9), 25 fps, AVC, ~ 3.882 kbps avg, 0.075 bit.pixel
Аудио: 44.1 KHz, AAC, 2ch, stereo, ~ 192 Kbps avg
Скриншоты:





Формат: HDTVRip, MP4, AVC, AAC
Видео: 1920:1080 (16:9), 25 fps, AVC, ~ 4.283 kbps avg, 0.083 bit.pixel
Аудио: 44.1 KHz, AAC, 2ch, stereo, ~ 192 Kbps avg
Скриншоты:





Формат: HDTVRip, MP4, AVC, AAC
Видео: 1920:1080 (16:9), 23.976 fps, AVC, ~ 3.438 kbps avg, 0.069 bit.pixel
Аудио: 44.1 KHz, AAC, 2ch, stereo, ~ 192 Kbps avg
Скриншоты:





Формат: HDTVRip, MP4, AVC, AAC
Видео: 1920:1080 (16:9), 25 fps, AVC, ~ 2.018 kbps avg, 0.039 bit.pixel
Аудио: 44.1 KHz, AAC, 2ch, stereo, ~ 192 Kbps avg
Скриншоты:





Формат: HDTVRip, MP4, AVC, AAC
Видео: 1920:1080 (16:9), 25 fps, AVC, ~ 5.712 kbps avg, 0.110 bit.pixel
Аудио: 44.1 KHz, AAC, 2ch, stereo, ~ 192 Kbps avg
Скриншоты:





Формат: HDTVRip, MP4, AVC, AAC
Видео: 1920:1080 (16:9), 25 fps, AVC, ~ 3.052 kbps avg, 0.059 bit.pixel
Аудио: 44.1 KHz, AAC, 2ch, stereo, ~ 192 Kbps avg
Скриншоты:





Формат: HDTVRip, MP4, AVC, AAC
Видео: 1920:1080 (16:9), 25 fps, AVC, ~ 5.837 kbps avg, 0.113 bit.pixel
Аудио: 44.1 KHz, AAC, 2ch, stereo, ~ 192 Kbps avg
Скриншоты:





Формат: HDTVRip, MP4, AVC, AAC
Видео: 1920:1080 (16:9), 24 fps, AVC, ~ 2.939 kbps avg, 0.059 bit.pixel
Аудио: 44.1 KHz, AAC, 2ch, stereo, ~ 192 Kbps avg
Скриншоты:





Формат: HDTVRip, MP4, AVC, AAC
Видео: 1920:1080 (16:9), 25 fps, AVC, ~ 3.409 kbps avg, 0.066 bit.pixel
Аудио: 44.1 KHz, AAC, 2ch, stereo, ~ 192 Kbps avg
Скриншоты:





Формат: HDTVRip, MP4, AVC, AAC
Видео: 1920:1080 (16:9), 25 fps, AVC, ~ 3.230 kbps avg, 0.062 bit.pixel
Аудио: 44.1 KHz, AAC, 2ch, stereo, ~ 192 Kbps avg
Скриншоты:






Релиз от:
ViKa
 
Раздал: 4.71 ТБ
Скачал: 139.97 ГБ
Ратио: 34.434
Сообщения: 25821
Зарегистрирован: 14 мар 2009, 20:33
  • Торрент
Автор: ViKa Хэш: ---
Добавлен: 08 май 2014, 22:12 Приватный: Нет (DHT включён)
Статус: Проверен
Размер: 1 ГБ (1 074 357 691 байт)
Изменил:
---
Скачали: 0 (Раздающих: 0%)
Причина:
---
Здоровье: 0%
Сидеров: 0 Личеров: 0
Скорость раздачи: 0 байт/сек Скорость скачивания: 0 байт/сек
Последний сидер: Нет Последний личер: Нет
Для скачивания торрента необходимо зарегистрироваться или войти на трекер.

Форум Статистика

Кто сейчас на конференции

Сейчас этот форум просматривают: нет зарегистрированных пользователей и гости: 3

Настройки

Вернуться в Клипы / Ролики / Приколы

cron
Ресурс не предоставляет электронные версии произведений, а занимается лишь коллекционированием и каталогизацией ссылок, присылаемых и публикуемых на форуме нашими читателями. Если вы являетесь правообладателем какого-либо представленного материала и не желаете чтобы ссылка на него находилась в нашем каталоге, свяжитесь с нами и мы незамедлительно удалим её. Файлы для обмена на трекере предоставлены пользователями сайта, и администрация не несёт ответственности за их содержание. Просьба не заливать файлы, защищенные авторскими правами, а также файлы нелегального содержания!
tracker_cron