Модераторы: Модераторы, Младшие модераторы

VA - Millenium 15

Сообщение ViKa » 20 июн 2014, 20:50


Формат: DVDRip, MP4, AVC, AAC
Песня: Millenium 15
Жанр: Pop
Продолжительность: 02:51:31
Год выпуска: 2012
Видео: 720х576 (4:3),25 fps, MPEG4 Video, AVC (H264), ~3000 Кбит/сек, 0.290 б/п
Аудио: 48000Hz, AAC, 2 ch stereo, ~384kbps
01 Armin Van Buuren Feat Sharon Den Adel - In & Out Of Love.mp4
02 In-Grid - Mama Mia
03 Solid Base - You Never Know
04 Fancy - Bolero
05 Alex C Feat Yasmin K - Rhythm Of The Night
06 Perfecto Allstarz - Reach Up
07 Candy Dulfer - For The Love Of You
08 Soundlovers - Run A Way
09 Benassi Bros. - Rocket In The Sky feat. Dhany
10 Art Meson - Manureva
11 Gotan Project - Sentimental
12 Pulsedriver - Cambodia
13 U96 - Club Bizarre
14 Kosheen - Catch
15 Melodie MC - Dum Da Dum
16 DJ Murphy Brown - Axel F 2003
17 Verona - Stay With Me
18 Benassi Bros feat Dhany - Make me feel
19 E-Type - Russian Lullaby
20 James Brown - Get Up (I feel like being a sex machine)
21 Irene Cara - Flashdance... What a Feeling
22 Groove Coverage - God is a girl
23 Loft - Hold On
24 T - Seven - Passion
25 Whigfield - Be My Baby
26 Candy Dulfer - Sax-A-Go-Go
27 Trio - Da Da Da
28 2 Unlimited Let The Beat Control Your Body
29 Amanda Seyfried, Ashley Lilley & Rachel McDowall - Gimme! Gimme! Gimme!
30 Bob Sinclar - Kiss My Eyes
31 Yves Larok - By Your Side
32 GALA - Freed From Desire
33 Residence Deejays & Frissco - Sexy Love
34 Solid Base - This is now we do it
35 Mattara feat Winston - Dreams Of My Life
36 Scissor Sisters - Fire With Fire
37 Gramophonedzie - Why Don't You
38 Ginuwine - Pony
39 N-Trance - Shake Ya Body
40 Dj Remo, Gosia Andrzejewicz - You Can Dance (Radio Mix)
41 DJ Tonka - DonBe Afraid
42 Fool's Garden - Lemon Tree
43 4 Non Blondes - What's Up
44 Era - Looking for Something
44 Vanessa Paradis - Joe le Taxi (Live 1988)
45 Britney Spears - Womanizer
46 Spice Girls - Viva Forever
47 Tim Berg - Bromance
48 Miley Cyrus - See You Again
49 Sash - Megamix
50 Dr. Baker - Turn Up The Music



Title:
Общее
Полное имя : G:\Millenium\Millenium All\Millenium\Millenium 15\02 In-Grid - Mama Mia.mp4
Формат : MPEG-4
Профиль формата : Base Media / Version 2
Идентификатор кодека : mp42
Размер файла : 89,2 Мбайт
Продолжительность : 3 м. 42 с.
Режим общего битрейта : Переменный
Общий поток : 3366 Кбит/сек
Программа кодирования : TMPGEnc Video Mastering Works 5 Version. 5.0.6.38

Видео
Идентификатор : 2
Формат : AVC
Формат/Информация : Advanced Video Codec
Профиль формата : High@L3.0
Параметр CABAC формата : Да
Параметр ReFrames формата : 3 кадра
Идентификатор кодека : avc1
Идентификатор кодека/Информация : Advanced Video Coding
Продолжительность : 3 м. 42 с.
Вид битрейта : Переменный
Битрейт : 3000 Кбит/сек
Максимальный битрейт : 6000 Кбит/сек
Ширина : 720 пикселей
Высота : 576 пикселей
Соотношение сторон : 4:3
Соотношение сторон в оригинале : 4:3
Режим частоты кадров : Постоянный
Частота кадров : 25,000 кадров/сек
Стандарт вещания : NTSC
Цветовое пространство : YUV
Субдискретизация насыщенности : 4:2:0
Битовая глубина : 8 бит
Тип развёртки : Прогрессивная
Бит/(Пиксели*Кадры) : 0.289
Размер потока : 79,0 Мбайт (88%)
Библиотека кодирования : x264 core 114
Настройки программы : cabac=1 / ref=3 / deblock=1:0:0 / analyse=0x3:0x113 / me=umh / subme=8 / psy=1 / psy_rd=1.00:0.00 / mixed_ref=1 / me_range=16 / chroma_me=1 / trellis=1 / 8x8dct=1 / cqm=2 / deadzone=21,11 / fast_pskip=1 / chroma_qp_offset=-2 / threads=3 / sliced_threads=0 / slices=1 / nr=0 / decimate=1 / interlaced=0 / constrained_intra=0 / bframes=3 / b_pyramid=0 / b_adapt=2 / b_bias=0 / direct=3 / weightb=1 / open_gop=0 / weightp=2 / keyint=250 / keyint_min=25 / scenecut=55 / intra_refresh=0 / rc_lookahead=50 / rc=abr / mbtree=1 / bitrate=3000 / ratetol=1.0 / qcomp=0.60 / qpmin=3 / qpmax=69 / qpstep=4 / vbv_maxrate=6000 / vbv_bufsize=5996 / nal_hrd=vbr / ip_ratio=1.40 / aq=1:1.00
Основные цвета : BT.601 PAL
Характеристики трансфера : BT.470 System B, BT.470 System G
Коэффициенты матрицы : BT.601

Аудио
Идентификатор : 1
Формат : AAC
Формат/Информация : Advanced Audio Codec
Профиль формата : Main
Идентификатор кодека : 40
Продолжительность : 3 м. 42 с.
Вид битрейта : Переменный
Битрейт : 384 Кбит/сек
Максимальный битрейт : 576 Кбит/сек
Каналы : 2 канала
Расположение каналов : Front: L R
Частота : 48,0 КГц
Метод сжатия : С потерями
Задержка видео : 40 мс.
Размер потока : 10,2 Мбайт (11%)










ViKa
 
Раздал: 4.71 ТБ
Скачал: 139.97 ГБ
Ратио: 34.434
Сообщения: 25821
Зарегистрирован: 14 мар 2009, 20:33
  • Торрент
Автор: ViKa Хэш: ---
Добавлен: 20 июн 2014, 20:50 Приватный: Нет (DHT включён)
Статус: Проверен
Размер: 4.4 ГБ (4 725 659 583 байт)
Изменил:
---
Скачали: 1 (Раздающих: 0%)
Причина:
---
Здоровье: 0%
Сидеров: 0 Личеров: 0
Скорость раздачи: 0 байт/сек Скорость скачивания: 0 байт/сек
Последний сидер: Нет Последний личер: Нет
Для скачивания торрента необходимо зарегистрироваться или войти на трекер.

Форум Статистика

Кто сейчас на конференции

Сейчас этот форум просматривают: нет зарегистрированных пользователей и гости: 1

Настройки

Вернуться в Клипы / Ролики / Приколы

cron
Ресурс не предоставляет электронные версии произведений, а занимается лишь коллекционированием и каталогизацией ссылок, присылаемых и публикуемых на форуме нашими читателями. Если вы являетесь правообладателем какого-либо представленного материала и не желаете чтобы ссылка на него находилась в нашем каталоге, свяжитесь с нами и мы незамедлительно удалим её. Файлы для обмена на трекере предоставлены пользователями сайта, и администрация не несёт ответственности за их содержание. Просьба не заливать файлы, защищенные авторскими правами, а также файлы нелегального содержания!