Модераторы: Младшие модераторы, Модераторы

Фиксики против кработов (Василий Бедошвили и др.) [2019, приключения, музыка, мультфильм, WEB-DLRip-AVC]

Сообщение 7Max7 » 06 фев 2020, 18:44

Фиксики против кработов


#777

Информация о фильме
Название: Фиксики против кработов
Год выхода: 2019
Страна: Россия
Студия: Blitz Films, Аэроплан
Продолжительность: 01:25:57
Перевод: Не требуется
Жанр: приключения, музыка, мультфильм

Режиссер: Василий Бедошвили, Олег Ужинов, Иван Пшонкин

В ролях:
Дмитрий Назаров, Нонна Гришаева, Лариса Брохман, Диомид Виноградов, Дмитрий Сыендук, Прохор Чеховской, Инна Королёва, Лилия Шайхитдинова, Варвара Обидор, Пётр Иващенко

О фильме:
Фиксики — маленькие добрые человечки, которые живут в машинах и приборах и заботятся о технике. От людей фиксики скрываются: в мире есть всего несколько счастливчиков, которые общаются с ними. В лаборатории профессора Чудакова находится школа фиксиков, о которой знают только мальчик ДимДимыч и его подруга Катя. Но однажды там появляются неуловимые существа. Они шпионят за фиксиками и угрожают их тайне. Кто такие эти странные роботы-кработы, что им нужно и кто стоит за ними? Оказывается, у Чудакова есть давний недоброжелатель, и профессора вызывают на дуэль, чтобы свести старые счеты! Новые друзья — Мега и Альт — придут на помощь нашим фиксикам, и все попадут в невероятный водоворот приключений!



Файл
Формат: MKV
Качество: WEB-DLRip-AVC
Видео: 1024x428 (2.40:1), 24 fps, h.264 ~1979 kbps avg, 0.188 bit/pixel
Аудио: 48 kHz, AC3 Dolby Digital, 3/2 (L,C,R,l,r) + LFE ch, ~448 kbps avg
Субтитры: Отсутствуют
General
Unique ID : 312465651391483992360164615831166848445 (0xEB12B209B6EC88764924DD53D8BB0DBD)
Complete name : C:UsersSkandarVideosFixiki.protiv.krabotov.2019.WEB-DLRip(AVC).1.45Gb.OlLanDGroup.mkv
Format : Matroska
Format version : Version 4
File size : 1.46 GiB
Duration : 1 h 25 min
Overall bit rate : 2 425 kb/s
Movie name : Fixiki.protiv.krabotov.2019.WEB-DLRip(AVC).1.45Gb.OlLanDGroup#Skandar#
Encoded date : UTC 2020-02-04 14:38:43
Writing application : mkvmerge v31.0.0 ('Dolores In A Shoestand') 64-bit
Writing library : libebml v1.3.6 + libmatroska v1.4.9

Video
ID : 1
Format : AVC
Format/Info : Advanced Video Codec
Format profile : High@L4.1
Format settings : CABAC / 10 Ref Frames
Format settings, CABAC : Yes
Format settings, ReFrames : 10 frames
Codec ID : V_MPEG4/ISO/AVC
Duration : 1 h 25 min
Bit rate : 1 979 kb/s
Width : 1 024 pixels
Height : 428 pixels
Display aspect ratio : 2.40:1
Frame rate mode : Constant
Frame rate : 24.000 FPS
Color space : YUV
Chroma subsampling : 4:2:0
Bit depth : 8 bits
Scan type : Progressive
Bits/(Pixel*Frame) : 0.188
Stream size : 1.19 GiB (81%)
Title : Fixiki.protiv.krabotov.2019.WEB-DLRip(AVC).1.45Gb.OlLanDGroup#Skandar#
Writing library : x264 core 146 r2538 121396c
Encoding settings : cabac=1 / ref=10 / deblock=1:-3:-3 / analyse=0x3:0x133 / me=umh / subme=11 / psy=1 / psy_rd=0.97:0.05 / mixed_ref=1 / me_range=48 / chroma_me=1 / trellis=2 / 8x8dct=1 / cqm=0 / deadzone=21,11 / fast_pskip=0 / chroma_qp_offset=-3 / threads=6 / lookahead_threads=1 / sliced_threads=0 / nr=0 / decimate=0 / interlaced=0 / bluray_compat=0 / constrained_intra=0 / bframes=11 / b_pyramid=2 / b_adapt=2 / b_bias=0 / direct=3 / weightb=1 / open_gop=0 / weightp=2 / keyint=240 / keyint_min=23 / scenecut=40 / intra_refresh=0 / rc_lookahead=40 / rc=2pass / mbtree=0 / bitrate=1979 / ratetol=1.0 / qcomp=0.60 / qpmin=0 / qpmax=69 / qpstep=4 / cplxblur=20.0 / qblur=0.5 / vbv_maxrate=50000 / vbv_bufsize=62500 / nal_hrd=none / filler=0 / ip_ratio=1.40 / pb_ratio=1.30 / aq=1:1.00
Language : Russian
Default : Yes
Forced : No

Audio
ID : 2
Format : AC-3
Format/Info : Audio Coding 3
Commercial name : Dolby Digital
Codec ID : A_AC3
Duration : 1 h 25 min
Bit rate mode : Constant
Bit rate : 448 kb/s
Channel(s) : 6 channels
Channel layout : L R C LFE Ls Rs
Sampling rate : 48.0 kHz
Frame rate : 31.250 FPS (1536 SPF)
Bit depth : 16 bits
Compression mode : Lossy
Stream size : 275 MiB (18%)
Title : Original
Language : Russian
Service kind : Complete Main
Default : Yes
Forced : No




Релиз от:
7Max7
 
Раздал: 491.04 ГБ
Скачал: 3 ГБ
Ратио: 163.468
Сообщения: 140
Зарегистрирован: 14 фев 2014, 18:28
  • Торрент
Автор: 7Max7 Хэш: ---
Добавлен: 06 фев 2020, 18:44 Приватный: Нет (DHT включён)
Статус: Проверен
Размер: 1.46 ГБ (1 563 412 374 байт)
Изменил:
---
Скачали: 0 (Раздающих: 0%)
Причина:
---
Здоровье: 0%
Сидеров: 0 Личеров: 0
Скорость раздачи: 0 байт/сек Скорость скачивания: 0 байт/сек
Последний сидер: Нет Последний личер: Нет
Для скачивания торрента необходимо зарегистрироваться или войти на трекер.

Форум Статистика

Кто сейчас на конференции

Сейчас этот форум просматривают: нет зарегистрированных пользователей и гости: 4

  • Похожие торренты
    Ответы
    Просмотры
    Последнее сообщение

Настройки

Вернуться в Мультфильмы

cron
Ресурс не предоставляет электронные версии произведений, а занимается лишь коллекционированием и каталогизацией ссылок, присылаемых и публикуемых на форуме нашими читателями. Если вы являетесь правообладателем какого-либо представленного материала и не желаете чтобы ссылка на него находилась в нашем каталоге, свяжитесь с нами и мы незамедлительно удалим её. Файлы для обмена на трекере предоставлены пользователями сайта, и администрация не несёт ответственности за их содержание. Просьба не заливать файлы, защищенные авторскими правами, а также файлы нелегального содержания!
cron